#TITLE:Healing Vision;
#SUBTITLE:(Demonic Mix);
#ARTIST:2MB & DJ Potatoe;
#TITLETRANSLIT:;
#SUBTITLETRANSLIT:;
#ARTISTTRANSLIT:;
#CREDIT:;
#BANNER:HealingVisionDemonic-banner.png;
#BACKGROUND:HealingVisionDemonic-bg.png;
#LYRICSPATH:;
#CDTITLE:;
#MUSIC:Healing Vision.mp3;
#MUSICLENGTH:84.715;
#OFFSET:-0.160;
#SAMPLESTART:42.000;
#SAMPLELENGTH:12.000;
#SELECTABLE:YES;
#BPMS:0.000=98.400,16.000=195.620,112.000=97.820,144.000=195.620,208.000=95.699;
#STOPS:;
#BGCHANGES:;
#FIRSTBEAT:16.000;

#LASTBEAT:215.500;

#SONGFILENAME:Songs/ERICth MIX 2nd Style/Healing Vision/healingvisionmix.sm;

#HASMUSIC:1;

#HASBANNER:1;


//---------------dance-single - BASIC----------------
#NOTES:
     dance-single:
     BASIC:
     easy:
     3:
     0.194,0.286,0.130,0.024,0.000,102.000,11.000,2.000,0.000,0.000:



0000
0000
0000
0000
,
0000
0000
0000
0000
,
0000
0000
0000
0000
,
0000
0000
0000
0000
,
1100
0000
0000
0000
,
1100
0000
0000
0000
,
0010
0000
0000
0000
,
1000
0000
0100
0000
,
0101
0000
0010
0000
,
0100
0000
0001
0000
,
1000
0000
0100
0000
,
0010
0000
0011
0000
,
0011
0000
1000
0000
,
0001
0000
0100
0000
,
0010
0000
0100
0000
,
0001
0000
1000
0000
,
0010
0000
1000
0000
,
0100
0000
1000
0000
,
0001
0000
0010
0000
,
0001
0000
1000
0000
,
1000
0000
0000
0000
,
0100
0000
0000
0000
,
0010
0000
0000
0000
,
0100
0001
1000
0000
,
0001
0000
0000
0000
,
0001
0000
0000
0000
,
0001
0000
0000
0000
,
0010
0010
0010
0010
,
0010
0001
1000
0100
,
0010
0100
0010
0100
,
1000
0001
0010
0010
,
0001
1000
0001
0010
,
0100
0010
0001
1000
,
0010
0010
0100
0100
,
0002
0000
0000
0000
,
0000
0000
0000
0003
,
1000
0100
0001
0001
,
0001
0001
0001
0001
,
0100
1000
1000
1000
,
1000
1000
1000
1000
,
0010
0000
0100
0000
,
0010
0000
0100
0000
,
0010
0000
0100
0000
,
0001
0001
1000
1000
,
1001
0000
0000
0000
,
1001
0000
0000
0000
,
0011
0000
0000
0000
,
0011
0000
0000
0000
,
1100
0000
0000
0000
,
1100
0000
0000
0000
,
0010
0000
0000
0000
,
0100
0000
0000
0000
,
0200
0000
0000
0000
,
0000
0000
0000
0300;

//---------------dance-single - ANOTHER----------------
#NOTES:
     dance-single:
     ANOTHER:
     medium:
     6:
     0.457,0.509,0.519,0.153,0.000,214.000,44.000,13.000,0.000,0.000:





0000
0000
0000
0000
,
0000
0000
0000
0000
,
0000
0000
0000
0000
,
0000
0000
0000
0000
,
1100
0000
1100
0000
1000
0100
1000
0000
,
0101
0000
0101
0000
0001
0100
0001
0000
,
1100
0000
0101
0000
1000
0100
0001
0000
,
1000
0100
0001
0100
1000
0000
1001
0000
,
1010
0000
1010
0000
1000
0010
1000
0000
,
0011
0000
0011
0000
0001
0010
0001
0000
,
1010
0000
0011
0000
1000
0010
0001
0000
,
1000
0010
0001
0010
1000
0000
1001
0000
,
1000
0100
0010
0001
,
1000
0001
0100
0000
0020
0000
0030
0000
,
1000
0010
0100
0001
,
0001
1000
0100
0000
0020
0000
0030
0000
,
1000
0100
0010
0001
,
1000
0001
0100
0000
0020
0000
0030
0000
,
1000
0010
0100
0001
,
0001
1000
0100
0000
0020
0000
0030
0000
,
0010
1000
0100
0000
0010
1000
0100
0000
,
0010
0001
0100
0000
0010
0001
0100
0000
,
0010
1000
0100
0000
0010
1000
0100
0000
,
0010
0001
0100
0000
0010
0001
0100
0000
,
1010
0000
0000
0101
0000
0000
0000
0000
,
0011
0000
0000
1100
0000
0000
0000
0000
,
0101
0000
0000
1100
0000
0000
0000
0000
,
0011
0000
0000
1010
0000
0000
0000
0000
,
1000
0000
0001
0000
1000
1000
0001
0000
,
0100
0000
0010
0000
0100
0100
0010
0000
,
1000
0000
0010
0000
1000
1000
0010
0000
,
0100
0000
0001
0000
0100
0100
0001
0000
,
0010
0000
0001
0000
0010
0010
0001
0000
,
1000
0000
0100
0000
1000
1000
0100
0000
,
0100
0000
0010
0000
0100
0100
0010
0000
,
1000
0000
0001
0000
1000
1000
0001
0000
,
1100
0000
1100
0000
1000
0100
1000
0000
,
0101
0000
0101
0000
0001
0100
0001
0000
,
1100
0000
0101
0000
1000
0100
0001
0000
,
1000
0100
0001
0100
1000
0000
1001
0000
,
1010
0000
1010
0000
1000
0010
1000
0000
,
0011
0000
0011
0000
0001
0010
0001
0000
,
1010
0000
0011
0000
1000
0010
0001
0000
,
1000
0010
0001
0010
1000
0000
1001
0000
,
1001
0000
1000
0002
0000
0000
0003
0000
,
0110
0000
0010
0200
0000
0000
0300
0000
,
1001
0000
0001
2000
0000
0000
3000
0000
,
0110
0000
0100
0020
0000
0000
0030
0000
,
1100
0000
1000
0200
0000
0000
0300
0000
,
0011
0000
0010
0002
0000
0000
0003
0000
,
0101
0000
0100
0002
0000
0000
0003
0000
,
1010
0000
1000
0020
0000
0000
0030
0000
,
0010
0020
0000
0000
0000
0000
0000
0000
,
0000
0000
0000
0000
0000
0000
0000
0030;

//---------------dance-single - MANIAC----------------
#NOTES:
     dance-single:
     MANIAC:
     hard:
     9:
     0.587,0.604,0.508,0.106,0.094,296.000,43.000,9.000,0.000,0.000:





0000
0000
0000
0000
,
0000
0000
0000
0000
,
0000
0000
0000
0000
,
0000
0000
0000
0000
,
1100
0000
0010
1000
0100
0000
0010
1000
,
0100
0000
0010
1000
0100
0001
0010
1000
,
1100
0000
1000
0001
1000
0000
0001
0100
,
0001
0000
0010
1000
0100
1000
0010
0000
,
0110
0000
1001
0000
1000
0100
0001
0000
,
1001
0000
0110
0000
0001
0100
1000
0000
,
0010
1000
0100
1000
0010
0001
0010
1000
,
0100
1000
0100
0001
0100
0010
0100
0000
,
0101
0000
0010
0001
0100
0000
0010
0001
,
0100
0000
0100
0001
0010
1000
0100
0001
,
0101
0000
0001
1000
0001
0000
0010
0100
,
0010
1010
0011
1001
,
0010
1000
0100
1000
0010
0001
0010
1000
,
0100
1000
0100
0001
0100
0010
0100
0010
,
0001
1000
0100
1000
0100
0001
0010
1000
,
0100
0001
0100
1000
0010
0001
0010
0100
,
0010
1000
0001
1000
0000
0001
0100
0010
,
1000
0100
0001
0100
0001
0100
1000
0100
,
1100
1100
1100
1100
,
1000
0100
0001
0100
1000
0010
0001
0010
,
1000
0100
0000
0100
1000
0000
1100
0000
,
1000
0010
0000
0010
1000
0000
1010
0000
,
0100
0001
0000
0001
0100
0000
0101
0000
,
0001
0010
0000
0010
0001
0000
1001
0000
,
1000
0100
0000
0000
1100
0000
0000
0000
1000
0100
1000
0000
1100
0000
0000
0000
,
0001
0100
0000
0000
0101
0000
0000
0000
0001
0100
0001
0000
0101
0000
0000
0000
,
1000
0100
0000
0000
1100
0000
0000
0000
1000
0100
1000
0000
1100
0000
0000
0000
,
0001
0100
0000
0000
0101
0000
0000
0000
0001
0100
0001
0000
0101
0000
0000
0000
,
1000
0010
0000
0000
1010
0000
0000
0000
1000
0010
1000
0000
1010
0000
0000
0000
,
0001
0010
0000
0000
0011
0000
0000
0000
0001
0010
0001
0000
0011
0000
0000
0000
,
1000
0010
0000
0000
1010
0000
0000
0000
1000
0010
1000
0000
1010
0000
0000
0000
,
0001
0010
0000
0000
0011
0000
0000
0000
0001
0010
0001
0000
0011
0000
0000
0000
,
1000
0100
0001
0100
1000
0010
1000
0010
,
0100
0001
0010
1000
0010
0001
0100
1000
,
0010
0001
0100
1000
0100
0001
0100
0001
,
1000
0010
0100
0010
0001
0010
1000
0010
,
1000
0100
0001
1000
0010
0001
1000
0100
,
0001
1000
0010
0001
1000
0100
0001
1000
,
0010
0001
0010
0001
0100
0100
0001
0010
,
1000
0010
0001
0100
1000
0000
1000
0000
,
1001
0000
1000
0002
0000
0000
0003
0000
,
0110
0000
0010
0200
0000
0000
0300
0000
,
1001
0000
0001
2000
0000
0000
3000
0000
,
0110
0000
0100
0020
0000
0000
0030
0000
,
1100
0000
1000
0200
0000
0000
0300
0000
,
0011
0000
0010
0002
0000
0000
0003
0000
,
0101
0000
0100
0002
0000
0000
0003
0000
,
1010
0000
1000
0020
0000
0000
0030
0000
,
0010
0020
0000
0000
0000
0000
0000
0000
,
0000
0000
0000
0000
0000
0000
0000
0030;
